ffmpeg: prefix encoder with "Lavc " in bitexact mode
[ffmpeg.git] / tests / ref / fate / ffprobe_flat
1 packets_and_frames.packet.0.codec_type="audio"
2 packets_and_frames.packet.0.stream_index=0
3 packets_and_frames.packet.0.pts=0
4 packets_and_frames.packet.0.pts_time="0.000000"
5 packets_and_frames.packet.0.dts=0
6 packets_and_frames.packet.0.dts_time="0.000000"
7 packets_and_frames.packet.0.duration=1024
8 packets_and_frames.packet.0.duration_time="0.023220"
9 packets_and_frames.packet.0.convergence_duration="N/A"
10 packets_and_frames.packet.0.convergence_duration_time="N/A"
11 packets_and_frames.packet.0.size="2048"
12 packets_and_frames.packet.0.pos="642"
13 packets_and_frames.packet.0.flags="K"
14 packets_and_frames.frame.0.media_type="audio"
15 packets_and_frames.frame.0.key_frame=1
16 packets_and_frames.frame.0.pkt_pts=0
17 packets_and_frames.frame.0.pkt_pts_time="0.000000"
18 packets_and_frames.frame.0.pkt_dts=0
19 packets_and_frames.frame.0.pkt_dts_time="0.000000"
20 packets_and_frames.frame.0.best_effort_timestamp=0
21 packets_and_frames.frame.0.best_effort_timestamp_time="0.000000"
22 packets_and_frames.frame.0.pkt_duration=1024
23 packets_and_frames.frame.0.pkt_duration_time="0.023220"
24 packets_and_frames.frame.0.pkt_pos="642"
25 packets_and_frames.frame.0.pkt_size="2048"
26 packets_and_frames.frame.0.sample_fmt="s16"
27 packets_and_frames.frame.0.nb_samples=1024
28 packets_and_frames.frame.0.channels=1
29 packets_and_frames.frame.0.channel_layout="unknown"
30 packets_and_frames.packet.1.codec_type="video"
31 packets_and_frames.packet.1.stream_index=1
32 packets_and_frames.packet.1.pts=0
33 packets_and_frames.packet.1.pts_time="0.000000"
34 packets_and_frames.packet.1.dts=0
35 packets_and_frames.packet.1.dts_time="0.000000"
36 packets_and_frames.packet.1.duration=2048
37 packets_and_frames.packet.1.duration_time="0.040000"
38 packets_and_frames.packet.1.convergence_duration="N/A"
39 packets_and_frames.packet.1.convergence_duration_time="N/A"
40 packets_and_frames.packet.1.size="230400"
41 packets_and_frames.packet.1.pos="2717"
42 packets_and_frames.packet.1.flags="K"
43 packets_and_frames.frame.1.media_type="video"
44 packets_and_frames.frame.1.key_frame=1
45 packets_and_frames.frame.1.pkt_pts=0
46 packets_and_frames.frame.1.pkt_pts_time="0.000000"
47 packets_and_frames.frame.1.pkt_dts=0
48 packets_and_frames.frame.1.pkt_dts_time="0.000000"
49 packets_and_frames.frame.1.best_effort_timestamp=0
50 packets_and_frames.frame.1.best_effort_timestamp_time="0.000000"
51 packets_and_frames.frame.1.pkt_duration=2048
52 packets_and_frames.frame.1.pkt_duration_time="0.040000"
53 packets_and_frames.frame.1.pkt_pos="2717"
54 packets_and_frames.frame.1.pkt_size="230400"
55 packets_and_frames.frame.1.width=320
56 packets_and_frames.frame.1.height=240
57 packets_and_frames.frame.1.pix_fmt="rgb24"
58 packets_and_frames.frame.1.sample_aspect_ratio="1:1"
59 packets_and_frames.frame.1.pict_type="I"
60 packets_and_frames.frame.1.coded_picture_number=0
61 packets_and_frames.frame.1.display_picture_number=0
62 packets_and_frames.frame.1.interlaced_frame=0
63 packets_and_frames.frame.1.top_field_first=0
64 packets_and_frames.frame.1.repeat_pict=0
65 packets_and_frames.packet.2.codec_type="video"
66 packets_and_frames.packet.2.stream_index=2
67 packets_and_frames.packet.2.pts=0
68 packets_and_frames.packet.2.pts_time="0.000000"
69 packets_and_frames.packet.2.dts=0
70 packets_and_frames.packet.2.dts_time="0.000000"
71 packets_and_frames.packet.2.duration=2048
72 packets_and_frames.packet.2.duration_time="0.040000"
73 packets_and_frames.packet.2.convergence_duration="N/A"
74 packets_and_frames.packet.2.convergence_duration_time="N/A"
75 packets_and_frames.packet.2.size="30000"
76 packets_and_frames.packet.2.pos="233138"
77 packets_and_frames.packet.2.flags="K"
78 packets_and_frames.frame.2.media_type="video"
79 packets_and_frames.frame.2.key_frame=1
80 packets_and_frames.frame.2.pkt_pts=0
81 packets_and_frames.frame.2.pkt_pts_time="0.000000"
82 packets_and_frames.frame.2.pkt_dts=0
83 packets_and_frames.frame.2.pkt_dts_time="0.000000"
84 packets_and_frames.frame.2.best_effort_timestamp=0
85 packets_and_frames.frame.2.best_effort_timestamp_time="0.000000"
86 packets_and_frames.frame.2.pkt_duration=2048
87 packets_and_frames.frame.2.pkt_duration_time="0.040000"
88 packets_and_frames.frame.2.pkt_pos="233138"
89 packets_and_frames.frame.2.pkt_size="30000"
90 packets_and_frames.frame.2.width=100
91 packets_and_frames.frame.2.height=100
92 packets_and_frames.frame.2.pix_fmt="rgb24"
93 packets_and_frames.frame.2.sample_aspect_ratio="1:1"
94 packets_and_frames.frame.2.pict_type="I"
95 packets_and_frames.frame.2.coded_picture_number=0
96 packets_and_frames.frame.2.display_picture_number=0
97 packets_and_frames.frame.2.interlaced_frame=0
98 packets_and_frames.frame.2.top_field_first=0
99 packets_and_frames.frame.2.repeat_pict=0
100 packets_and_frames.packet.3.codec_type="audio"
101 packets_and_frames.packet.3.stream_index=0
102 packets_and_frames.packet.3.pts=1024
103 packets_and_frames.packet.3.pts_time="0.023220"
104 packets_and_frames.packet.3.dts=1024
105 packets_and_frames.packet.3.dts_time="0.023220"
106 packets_and_frames.packet.3.duration=1024
107 packets_and_frames.packet.3.duration_time="0.023220"
108 packets_and_frames.packet.3.convergence_duration="N/A"
109 packets_and_frames.packet.3.convergence_duration_time="N/A"
110 packets_and_frames.packet.3.size="2048"
111 packets_and_frames.packet.3.pos="263143"
112 packets_and_frames.packet.3.flags="K"
113 packets_and_frames.frame.3.media_type="audio"
114 packets_and_frames.frame.3.key_frame=1
115 packets_and_frames.frame.3.pkt_pts=1024
116 packets_and_frames.frame.3.pkt_pts_time="0.023220"
117 packets_and_frames.frame.3.pkt_dts=1024
118 packets_and_frames.frame.3.pkt_dts_time="0.023220"
119 packets_and_frames.frame.3.best_effort_timestamp=1024
120 packets_and_frames.frame.3.best_effort_timestamp_time="0.023220"
121 packets_and_frames.frame.3.pkt_duration=1024
122 packets_and_frames.frame.3.pkt_duration_time="0.023220"
123 packets_and_frames.frame.3.pkt_pos="263143"
124 packets_and_frames.frame.3.pkt_size="2048"
125 packets_and_frames.frame.3.sample_fmt="s16"
126 packets_and_frames.frame.3.nb_samples=1024
127 packets_and_frames.frame.3.channels=1
128 packets_and_frames.frame.3.channel_layout="unknown"
129 packets_and_frames.packet.4.codec_type="video"
130 packets_and_frames.packet.4.stream_index=1
131 packets_and_frames.packet.4.pts=2048
132 packets_and_frames.packet.4.pts_time="0.040000"
133 packets_and_frames.packet.4.dts=2048
134 packets_and_frames.packet.4.dts_time="0.040000"
135 packets_and_frames.packet.4.duration=2048
136 packets_and_frames.packet.4.duration_time="0.040000"
137 packets_and_frames.packet.4.convergence_duration="N/A"
138 packets_and_frames.packet.4.convergence_duration_time="N/A"
139 packets_and_frames.packet.4.size="230400"
140 packets_and_frames.packet.4.pos="265221"
141 packets_and_frames.packet.4.flags="K"
142 packets_and_frames.frame.4.media_type="video"
143 packets_and_frames.frame.4.key_frame=1
144 packets_and_frames.frame.4.pkt_pts=2048
145 packets_and_frames.frame.4.pkt_pts_time="0.040000"
146 packets_and_frames.frame.4.pkt_dts=2048
147 packets_and_frames.frame.4.pkt_dts_time="0.040000"
148 packets_and_frames.frame.4.best_effort_timestamp=2048
149 packets_and_frames.frame.4.best_effort_timestamp_time="0.040000"
150 packets_and_frames.frame.4.pkt_duration=2048
151 packets_and_frames.frame.4.pkt_duration_time="0.040000"
152 packets_and_frames.frame.4.pkt_pos="265221"
153 packets_and_frames.frame.4.pkt_size="230400"
154 packets_and_frames.frame.4.width=320
155 packets_and_frames.frame.4.height=240
156 packets_and_frames.frame.4.pix_fmt="rgb24"
157 packets_and_frames.frame.4.sample_aspect_ratio="1:1"
158 packets_and_frames.frame.4.pict_type="I"
159 packets_and_frames.frame.4.coded_picture_number=0
160 packets_and_frames.frame.4.display_picture_number=0
161 packets_and_frames.frame.4.interlaced_frame=0
162 packets_and_frames.frame.4.top_field_first=0
163 packets_and_frames.frame.4.repeat_pict=0
164 packets_and_frames.packet.5.codec_type="video"
165 packets_and_frames.packet.5.stream_index=2
166 packets_and_frames.packet.5.pts=2048
167 packets_and_frames.packet.5.pts_time="0.040000"
168 packets_and_frames.packet.5.dts=2048
169 packets_and_frames.packet.5.dts_time="0.040000"
170 packets_and_frames.packet.5.duration=2048
171 packets_and_frames.packet.5.duration_time="0.040000"
172 packets_and_frames.packet.5.convergence_duration="N/A"
173 packets_and_frames.packet.5.convergence_duration_time="N/A"
174 packets_and_frames.packet.5.size="30000"
175 packets_and_frames.packet.5.pos="495645"
176 packets_and_frames.packet.5.flags="K"
177 packets_and_frames.frame.5.media_type="video"
178 packets_and_frames.frame.5.key_frame=1
179 packets_and_frames.frame.5.pkt_pts=2048
180 packets_and_frames.frame.5.pkt_pts_time="0.040000"
181 packets_and_frames.frame.5.pkt_dts=2048
182 packets_and_frames.frame.5.pkt_dts_time="0.040000"
183 packets_and_frames.frame.5.best_effort_timestamp=2048
184 packets_and_frames.frame.5.best_effort_timestamp_time="0.040000"
185 packets_and_frames.frame.5.pkt_duration=2048
186 packets_and_frames.frame.5.pkt_duration_time="0.040000"
187 packets_and_frames.frame.5.pkt_pos="495645"
188 packets_and_frames.frame.5.pkt_size="30000"
189 packets_and_frames.frame.5.width=100
190 packets_and_frames.frame.5.height=100
191 packets_and_frames.frame.5.pix_fmt="rgb24"
192 packets_and_frames.frame.5.sample_aspect_ratio="1:1"
193 packets_and_frames.frame.5.pict_type="I"
194 packets_and_frames.frame.5.coded_picture_number=0
195 packets_and_frames.frame.5.display_picture_number=0
196 packets_and_frames.frame.5.interlaced_frame=0
197 packets_and_frames.frame.5.top_field_first=0
198 packets_and_frames.frame.5.repeat_pict=0
199 packets_and_frames.packet.6.codec_type="audio"
200 packets_and_frames.packet.6.stream_index=0
201 packets_and_frames.packet.6.pts=2048
202 packets_and_frames.packet.6.pts_time="0.046440"
203 packets_and_frames.packet.6.dts=2048
204 packets_and_frames.packet.6.dts_time="0.046440"
205 packets_and_frames.packet.6.duration=1024
206 packets_and_frames.packet.6.duration_time="0.023220"
207 packets_and_frames.packet.6.convergence_duration="N/A"
208 packets_and_frames.packet.6.convergence_duration_time="N/A"
209 packets_and_frames.packet.6.size="2048"
210 packets_and_frames.packet.6.pos="525650"
211 packets_and_frames.packet.6.flags="K"
212 packets_and_frames.frame.6.media_type="audio"
213 packets_and_frames.frame.6.key_frame=1
214 packets_and_frames.frame.6.pkt_pts=2048
215 packets_and_frames.frame.6.pkt_pts_time="0.046440"
216 packets_and_frames.frame.6.pkt_dts=2048
217 packets_and_frames.frame.6.pkt_dts_time="0.046440"
218 packets_and_frames.frame.6.best_effort_timestamp=2048
219 packets_and_frames.frame.6.best_effort_timestamp_time="0.046440"
220 packets_and_frames.frame.6.pkt_duration=1024
221 packets_and_frames.frame.6.pkt_duration_time="0.023220"
222 packets_and_frames.frame.6.pkt_pos="525650"
223 packets_and_frames.frame.6.pkt_size="2048"
224 packets_and_frames.frame.6.sample_fmt="s16"
225 packets_and_frames.frame.6.nb_samples=1024
226 packets_and_frames.frame.6.channels=1
227 packets_and_frames.frame.6.channel_layout="unknown"
228 packets_and_frames.packet.7.codec_type="audio"
229 packets_and_frames.packet.7.stream_index=0
230 packets_and_frames.packet.7.pts=3072
231 packets_and_frames.packet.7.pts_time="0.069660"
232 packets_and_frames.packet.7.dts=3072
233 packets_and_frames.packet.7.dts_time="0.069660"
234 packets_and_frames.packet.7.duration=1024
235 packets_and_frames.packet.7.duration_time="0.023220"
236 packets_and_frames.packet.7.convergence_duration="N/A"
237 packets_and_frames.packet.7.convergence_duration_time="N/A"
238 packets_and_frames.packet.7.size="2048"
239 packets_and_frames.packet.7.pos="527721"
240 packets_and_frames.packet.7.flags="K"
241 packets_and_frames.frame.7.media_type="audio"
242 packets_and_frames.frame.7.key_frame=1
243 packets_and_frames.frame.7.pkt_pts=3072
244 packets_and_frames.frame.7.pkt_pts_time="0.069660"
245 packets_and_frames.frame.7.pkt_dts=3072
246 packets_and_frames.frame.7.pkt_dts_time="0.069660"
247 packets_and_frames.frame.7.best_effort_timestamp=3072
248 packets_and_frames.frame.7.best_effort_timestamp_time="0.069660"
249 packets_and_frames.frame.7.pkt_duration=1024
250 packets_and_frames.frame.7.pkt_duration_time="0.023220"
251 packets_and_frames.frame.7.pkt_pos="527721"
252 packets_and_frames.frame.7.pkt_size="2048"
253 packets_and_frames.frame.7.sample_fmt="s16"
254 packets_and_frames.frame.7.nb_samples=1024
255 packets_and_frames.frame.7.channels=1
256 packets_and_frames.frame.7.channel_layout="unknown"
257 packets_and_frames.packet.8.codec_type="video"
258 packets_and_frames.packet.8.stream_index=1
259 packets_and_frames.packet.8.pts=4096
260 packets_and_frames.packet.8.pts_time="0.080000"
261 packets_and_frames.packet.8.dts=4096
262 packets_and_frames.packet.8.dts_time="0.080000"
263 packets_and_frames.packet.8.duration=2048
264 packets_and_frames.packet.8.duration_time="0.040000"
265 packets_and_frames.packet.8.convergence_duration="N/A"
266 packets_and_frames.packet.8.convergence_duration_time="N/A"
267 packets_and_frames.packet.8.size="230400"
268 packets_and_frames.packet.8.pos="529799"
269 packets_and_frames.packet.8.flags="K"
270 packets_and_frames.frame.8.media_type="video"
271 packets_and_frames.frame.8.key_frame=1
272 packets_and_frames.frame.8.pkt_pts=4096
273 packets_and_frames.frame.8.pkt_pts_time="0.080000"
274 packets_and_frames.frame.8.pkt_dts=4096
275 packets_and_frames.frame.8.pkt_dts_time="0.080000"
276 packets_and_frames.frame.8.best_effort_timestamp=4096
277 packets_and_frames.frame.8.best_effort_timestamp_time="0.080000"
278 packets_and_frames.frame.8.pkt_duration=2048
279 packets_and_frames.frame.8.pkt_duration_time="0.040000"
280 packets_and_frames.frame.8.pkt_pos="529799"
281 packets_and_frames.frame.8.pkt_size="230400"
282 packets_and_frames.frame.8.width=320
283 packets_and_frames.frame.8.height=240
284 packets_and_frames.frame.8.pix_fmt="rgb24"
285 packets_and_frames.frame.8.sample_aspect_ratio="1:1"
286 packets_and_frames.frame.8.pict_type="I"
287 packets_and_frames.frame.8.coded_picture_number=0
288 packets_and_frames.frame.8.display_picture_number=0
289 packets_and_frames.frame.8.interlaced_frame=0
290 packets_and_frames.frame.8.top_field_first=0
291 packets_and_frames.frame.8.repeat_pict=0
292 packets_and_frames.packet.9.codec_type="video"
293 packets_and_frames.packet.9.stream_index=2
294 packets_and_frames.packet.9.pts=4096
295 packets_and_frames.packet.9.pts_time="0.080000"
296 packets_and_frames.packet.9.dts=4096
297 packets_and_frames.packet.9.dts_time="0.080000"
298 packets_and_frames.packet.9.duration=2048
299 packets_and_frames.packet.9.duration_time="0.040000"
300 packets_and_frames.packet.9.convergence_duration="N/A"
301 packets_and_frames.packet.9.convergence_duration_time="N/A"
302 packets_and_frames.packet.9.size="30000"
303 packets_and_frames.packet.9.pos="760223"
304 packets_and_frames.packet.9.flags="K"
305 packets_and_frames.frame.9.media_type="video"
306 packets_and_frames.frame.9.key_frame=1
307 packets_and_frames.frame.9.pkt_pts=4096
308 packets_and_frames.frame.9.pkt_pts_time="0.080000"
309 packets_and_frames.frame.9.pkt_dts=4096
310 packets_and_frames.frame.9.pkt_dts_time="0.080000"
311 packets_and_frames.frame.9.best_effort_timestamp=4096
312 packets_and_frames.frame.9.best_effort_timestamp_time="0.080000"
313 packets_and_frames.frame.9.pkt_duration=2048
314 packets_and_frames.frame.9.pkt_duration_time="0.040000"
315 packets_and_frames.frame.9.pkt_pos="760223"
316 packets_and_frames.frame.9.pkt_size="30000"
317 packets_and_frames.frame.9.width=100
318 packets_and_frames.frame.9.height=100
319 packets_and_frames.frame.9.pix_fmt="rgb24"
320 packets_and_frames.frame.9.sample_aspect_ratio="1:1"
321 packets_and_frames.frame.9.pict_type="I"
322 packets_and_frames.frame.9.coded_picture_number=0
323 packets_and_frames.frame.9.display_picture_number=0
324 packets_and_frames.frame.9.interlaced_frame=0
325 packets_and_frames.frame.9.top_field_first=0
326 packets_and_frames.frame.9.repeat_pict=0
327 packets_and_frames.packet.10.codec_type="audio"
328 packets_and_frames.packet.10.stream_index=0
329 packets_and_frames.packet.10.pts=4096
330 packets_and_frames.packet.10.pts_time="0.092880"
331 packets_and_frames.packet.10.dts=4096
332 packets_and_frames.packet.10.dts_time="0.092880"
333 packets_and_frames.packet.10.duration=1024
334 packets_and_frames.packet.10.duration_time="0.023220"
335 packets_and_frames.packet.10.convergence_duration="N/A"
336 packets_and_frames.packet.10.convergence_duration_time="N/A"
337 packets_and_frames.packet.10.size="2048"
338 packets_and_frames.packet.10.pos="790228"
339 packets_and_frames.packet.10.flags="K"
340 packets_and_frames.frame.10.media_type="audio"
341 packets_and_frames.frame.10.key_frame=1
342 packets_and_frames.frame.10.pkt_pts=4096
343 packets_and_frames.frame.10.pkt_pts_time="0.092880"
344 packets_and_frames.frame.10.pkt_dts=4096
345 packets_and_frames.frame.10.pkt_dts_time="0.092880"
346 packets_and_frames.frame.10.best_effort_timestamp=4096
347 packets_and_frames.frame.10.best_effort_timestamp_time="0.092880"
348 packets_and_frames.frame.10.pkt_duration=1024
349 packets_and_frames.frame.10.pkt_duration_time="0.023220"
350 packets_and_frames.frame.10.pkt_pos="790228"
351 packets_and_frames.frame.10.pkt_size="2048"
352 packets_and_frames.frame.10.sample_fmt="s16"
353 packets_and_frames.frame.10.nb_samples=1024
354 packets_and_frames.frame.10.channels=1
355 packets_and_frames.frame.10.channel_layout="unknown"
356 packets_and_frames.packet.11.codec_type="audio"
357 packets_and_frames.packet.11.stream_index=0
358 packets_and_frames.packet.11.pts=5120
359 packets_and_frames.packet.11.pts_time="0.116100"
360 packets_and_frames.packet.11.dts=5120
361 packets_and_frames.packet.11.dts_time="0.116100"
362 packets_and_frames.packet.11.duration=1024
363 packets_and_frames.packet.11.duration_time="0.023220"
364 packets_and_frames.packet.11.convergence_duration="N/A"
365 packets_and_frames.packet.11.convergence_duration_time="N/A"
366 packets_and_frames.packet.11.size="2048"
367 packets_and_frames.packet.11.pos="792299"
368 packets_and_frames.packet.11.flags="K"
369 packets_and_frames.frame.11.media_type="audio"
370 packets_and_frames.frame.11.key_frame=1
371 packets_and_frames.frame.11.pkt_pts=5120
372 packets_and_frames.frame.11.pkt_pts_time="0.116100"
373 packets_and_frames.frame.11.pkt_dts=5120
374 packets_and_frames.frame.11.pkt_dts_time="0.116100"
375 packets_and_frames.frame.11.best_effort_timestamp=5120
376 packets_and_frames.frame.11.best_effort_timestamp_time="0.116100"
377 packets_and_frames.frame.11.pkt_duration=1024
378 packets_and_frames.frame.11.pkt_duration_time="0.023220"
379 packets_and_frames.frame.11.pkt_pos="792299"
380 packets_and_frames.frame.11.pkt_size="2048"
381 packets_and_frames.frame.11.sample_fmt="s16"
382 packets_and_frames.frame.11.nb_samples=1024
383 packets_and_frames.frame.11.channels=1
384 packets_and_frames.frame.11.channel_layout="unknown"
385 packets_and_frames.packet.12.codec_type="video"
386 packets_and_frames.packet.12.stream_index=1
387 packets_and_frames.packet.12.pts=6144
388 packets_and_frames.packet.12.pts_time="0.120000"
389 packets_and_frames.packet.12.dts=6144
390 packets_and_frames.packet.12.dts_time="0.120000"
391 packets_and_frames.packet.12.duration=2048
392 packets_and_frames.packet.12.duration_time="0.040000"
393 packets_and_frames.packet.12.convergence_duration="N/A"
394 packets_and_frames.packet.12.convergence_duration_time="N/A"
395 packets_and_frames.packet.12.size="230400"
396 packets_and_frames.packet.12.pos="794377"
397 packets_and_frames.packet.12.flags="K"
398 packets_and_frames.frame.12.media_type="video"
399 packets_and_frames.frame.12.key_frame=1
400 packets_and_frames.frame.12.pkt_pts=6144
401 packets_and_frames.frame.12.pkt_pts_time="0.120000"
402 packets_and_frames.frame.12.pkt_dts=6144
403 packets_and_frames.frame.12.pkt_dts_time="0.120000"
404 packets_and_frames.frame.12.best_effort_timestamp=6144
405 packets_and_frames.frame.12.best_effort_timestamp_time="0.120000"
406 packets_and_frames.frame.12.pkt_duration=2048
407 packets_and_frames.frame.12.pkt_duration_time="0.040000"
408 packets_and_frames.frame.12.pkt_pos="794377"
409 packets_and_frames.frame.12.pkt_size="230400"
410 packets_and_frames.frame.12.width=320
411 packets_and_frames.frame.12.height=240
412 packets_and_frames.frame.12.pix_fmt="rgb24"
413 packets_and_frames.frame.12.sample_aspect_ratio="1:1"
414 packets_and_frames.frame.12.pict_type="I"
415 packets_and_frames.frame.12.coded_picture_number=0
416 packets_and_frames.frame.12.display_picture_number=0
417 packets_and_frames.frame.12.interlaced_frame=0
418 packets_and_frames.frame.12.top_field_first=0
419 packets_and_frames.frame.12.repeat_pict=0
420 packets_and_frames.packet.13.codec_type="video"
421 packets_and_frames.packet.13.stream_index=2
422 packets_and_frames.packet.13.pts=6144
423 packets_and_frames.packet.13.pts_time="0.120000"
424 packets_and_frames.packet.13.dts=6144
425 packets_and_frames.packet.13.dts_time="0.120000"
426 packets_and_frames.packet.13.duration=2048
427 packets_and_frames.packet.13.duration_time="0.040000"
428 packets_and_frames.packet.13.convergence_duration="N/A"
429 packets_and_frames.packet.13.convergence_duration_time="N/A"
430 packets_and_frames.packet.13.size="30000"
431 packets_and_frames.packet.13.pos="1024801"
432 packets_and_frames.packet.13.flags="K"
433 packets_and_frames.frame.13.media_type="video"
434 packets_and_frames.frame.13.key_frame=1
435 packets_and_frames.frame.13.pkt_pts=6144
436 packets_and_frames.frame.13.pkt_pts_time="0.120000"
437 packets_and_frames.frame.13.pkt_dts=6144
438 packets_and_frames.frame.13.pkt_dts_time="0.120000"
439 packets_and_frames.frame.13.best_effort_timestamp=6144
440 packets_and_frames.frame.13.best_effort_timestamp_time="0.120000"
441 packets_and_frames.frame.13.pkt_duration=2048
442 packets_and_frames.frame.13.pkt_duration_time="0.040000"
443 packets_and_frames.frame.13.pkt_pos="1024801"
444 packets_and_frames.frame.13.pkt_size="30000"
445 packets_and_frames.frame.13.width=100
446 packets_and_frames.frame.13.height=100
447 packets_and_frames.frame.13.pix_fmt="rgb24"
448 packets_and_frames.frame.13.sample_aspect_ratio="1:1"
449 packets_and_frames.frame.13.pict_type="I"
450 packets_and_frames.frame.13.coded_picture_number=0
451 packets_and_frames.frame.13.display_picture_number=0
452 packets_and_frames.frame.13.interlaced_frame=0
453 packets_and_frames.frame.13.top_field_first=0
454 packets_and_frames.frame.13.repeat_pict=0
455 streams.stream.0.index=0
456 streams.stream.0.codec_name="pcm_s16le"
457 streams.stream.0.profile="unknown"
458 streams.stream.0.codec_type="audio"
459 streams.stream.0.codec_time_base="1/44100"
460 streams.stream.0.codec_tag_string="PSD[16]"
461 streams.stream.0.codec_tag="0x10445350"
462 streams.stream.0.sample_fmt="s16"
463 streams.stream.0.sample_rate="44100"
464 streams.stream.0.channels=1
465 streams.stream.0.channel_layout="unknown"
466 streams.stream.0.bits_per_sample=16
467 streams.stream.0.id="N/A"
468 streams.stream.0.r_frame_rate="0/0"
469 streams.stream.0.avg_frame_rate="0/0"
470 streams.stream.0.time_base="1/44100"
471 streams.stream.0.start_pts=0
472 streams.stream.0.start_time="0.000000"
473 streams.stream.0.duration_ts="N/A"
474 streams.stream.0.duration="N/A"
475 streams.stream.0.bit_rate="705600"
476 streams.stream.0.nb_frames="N/A"
477 streams.stream.0.nb_read_frames="6"
478 streams.stream.0.nb_read_packets="6"
479 streams.stream.0.disposition.default=0
480 streams.stream.0.disposition.dub=0
481 streams.stream.0.disposition.original=0
482 streams.stream.0.disposition.comment=0
483 streams.stream.0.disposition.lyrics=0
484 streams.stream.0.disposition.karaoke=0
485 streams.stream.0.disposition.forced=0
486 streams.stream.0.disposition.hearing_impaired=0
487 streams.stream.0.disposition.visual_impaired=0
488 streams.stream.0.disposition.clean_effects=0
489 streams.stream.0.disposition.attached_pic=0
490 streams.stream.0.tags.E="mc²"
491 streams.stream.0.tags.encoder="Lavc pcm_s16le"
492 streams.stream.1.index=1
493 streams.stream.1.codec_name="rawvideo"
494 streams.stream.1.profile="unknown"
495 streams.stream.1.codec_type="video"
496 streams.stream.1.codec_time_base="1/51200"
497 streams.stream.1.codec_tag_string="RGB[24]"
498 streams.stream.1.codec_tag="0x18424752"
499 streams.stream.1.width=320
500 streams.stream.1.height=240
501 streams.stream.1.has_b_frames=0
502 streams.stream.1.sample_aspect_ratio="1:1"
503 streams.stream.1.display_aspect_ratio="4:3"
504 streams.stream.1.pix_fmt="rgb24"
505 streams.stream.1.level=-99
506 streams.stream.1.timecode="N/A"
507 streams.stream.1.id="N/A"
508 streams.stream.1.r_frame_rate="25/1"
509 streams.stream.1.avg_frame_rate="25/1"
510 streams.stream.1.time_base="1/51200"
511 streams.stream.1.start_pts=0
512 streams.stream.1.start_time="0.000000"
513 streams.stream.1.duration_ts="N/A"
514 streams.stream.1.duration="N/A"
515 streams.stream.1.bit_rate="N/A"
516 streams.stream.1.nb_frames="N/A"
517 streams.stream.1.nb_read_frames="4"
518 streams.stream.1.nb_read_packets="4"
519 streams.stream.1.disposition.default=0
520 streams.stream.1.disposition.dub=0
521 streams.stream.1.disposition.original=0
522 streams.stream.1.disposition.comment=0
523 streams.stream.1.disposition.lyrics=0
524 streams.stream.1.disposition.karaoke=0
525 streams.stream.1.disposition.forced=0
526 streams.stream.1.disposition.hearing_impaired=0
527 streams.stream.1.disposition.visual_impaired=0
528 streams.stream.1.disposition.clean_effects=0
529 streams.stream.1.disposition.attached_pic=0
530 streams.stream.1.tags.title="foobar"
531 streams.stream.1.tags.duration_ts="field-and-tags-conflict-attempt"
532 streams.stream.1.tags.encoder="Lavc rawvideo"
533 streams.stream.2.index=2
534 streams.stream.2.codec_name="rawvideo"
535 streams.stream.2.profile="unknown"
536 streams.stream.2.codec_type="video"
537 streams.stream.2.codec_time_base="1/51200"
538 streams.stream.2.codec_tag_string="RGB[24]"
539 streams.stream.2.codec_tag="0x18424752"
540 streams.stream.2.width=100
541 streams.stream.2.height=100
542 streams.stream.2.has_b_frames=0
543 streams.stream.2.sample_aspect_ratio="1:1"
544 streams.stream.2.display_aspect_ratio="1:1"
545 streams.stream.2.pix_fmt="rgb24"
546 streams.stream.2.level=-99
547 streams.stream.2.timecode="N/A"
548 streams.stream.2.id="N/A"
549 streams.stream.2.r_frame_rate="25/1"
550 streams.stream.2.avg_frame_rate="25/1"
551 streams.stream.2.time_base="1/51200"
552 streams.stream.2.start_pts=0
553 streams.stream.2.start_time="0.000000"
554 streams.stream.2.duration_ts="N/A"
555 streams.stream.2.duration="N/A"
556 streams.stream.2.bit_rate="N/A"
557 streams.stream.2.nb_frames="N/A"
558 streams.stream.2.nb_read_frames="4"
559 streams.stream.2.nb_read_packets="4"
560 streams.stream.2.disposition.default=0
561 streams.stream.2.disposition.dub=0
562 streams.stream.2.disposition.original=0
563 streams.stream.2.disposition.comment=0
564 streams.stream.2.disposition.lyrics=0
565 streams.stream.2.disposition.karaoke=0
566 streams.stream.2.disposition.forced=0
567 streams.stream.2.disposition.hearing_impaired=0
568 streams.stream.2.disposition.visual_impaired=0
569 streams.stream.2.disposition.clean_effects=0
570 streams.stream.2.disposition.attached_pic=0
571 streams.stream.2.tags.encoder="Lavc rawvideo"
572 format.filename="tests/data/ffprobe-test.nut"
573 format.nb_streams=3
574 format.nb_programs=0
575 format.format_name="nut"
576 format.start_time="0.000000"
577 format.duration="0.120000"
578 format.size="1054882"
579 format.bit_rate="70325466"
580 format.probe_score=100
581 format.tags.title="ffprobe test file"
582 format.tags.comment="'A comment with CSV, XML & JSON special chars': <tag value=\"x\">"
583 format.tags.comment2="I ♥ Üñîçød€"