ffmpeg: prefix encoder with "Lavc " in bitexact mode
[ffmpeg.git] / tests / ref / fate / ffprobe_ini
1 # ffprobe output
2
3 [packets_and_frames.packet.0]
4 codec_type=audio
5 stream_index=0
6 pts=0
7 pts_time=0.000000
8 dts=0
9 dts_time=0.000000
10 duration=1024
11 duration_time=0.023220
12 convergence_duration=N/A
13 convergence_duration_time=N/A
14 size=2048
15 pos=642
16 flags=K
17
18 [packets_and_frames.frame.0]
19 media_type=audio
20 key_frame=1
21 pkt_pts=0
22 pkt_pts_time=0.000000
23 pkt_dts=0
24 pkt_dts_time=0.000000
25 best_effort_timestamp=0
26 best_effort_timestamp_time=0.000000
27 pkt_duration=1024
28 pkt_duration_time=0.023220
29 pkt_pos=642
30 pkt_size=2048
31 sample_fmt=s16
32 nb_samples=1024
33 channels=1
34 channel_layout=unknown
35
36 [packets_and_frames.packet.1]
37 codec_type=video
38 stream_index=1
39 pts=0
40 pts_time=0.000000
41 dts=0
42 dts_time=0.000000
43 duration=2048
44 duration_time=0.040000
45 convergence_duration=N/A
46 convergence_duration_time=N/A
47 size=230400
48 pos=2717
49 flags=K
50
51 [packets_and_frames.frame.1]
52 media_type=video
53 key_frame=1
54 pkt_pts=0
55 pkt_pts_time=0.000000
56 pkt_dts=0
57 pkt_dts_time=0.000000
58 best_effort_timestamp=0
59 best_effort_timestamp_time=0.000000
60 pkt_duration=2048
61 pkt_duration_time=0.040000
62 pkt_pos=2717
63 pkt_size=230400
64 width=320
65 height=240
66 pix_fmt=rgb24
67 sample_aspect_ratio=1\:1
68 pict_type=I
69 coded_picture_number=0
70 display_picture_number=0
71 interlaced_frame=0
72 top_field_first=0
73 repeat_pict=0
74
75 [packets_and_frames.packet.2]
76 codec_type=video
77 stream_index=2
78 pts=0
79 pts_time=0.000000
80 dts=0
81 dts_time=0.000000
82 duration=2048
83 duration_time=0.040000
84 convergence_duration=N/A
85 convergence_duration_time=N/A
86 size=30000
87 pos=233138
88 flags=K
89
90 [packets_and_frames.frame.2]
91 media_type=video
92 key_frame=1
93 pkt_pts=0
94 pkt_pts_time=0.000000
95 pkt_dts=0
96 pkt_dts_time=0.000000
97 best_effort_timestamp=0
98 best_effort_timestamp_time=0.000000
99 pkt_duration=2048
100 pkt_duration_time=0.040000
101 pkt_pos=233138
102 pkt_size=30000
103 width=100
104 height=100
105 pix_fmt=rgb24
106 sample_aspect_ratio=1\:1
107 pict_type=I
108 coded_picture_number=0
109 display_picture_number=0
110 interlaced_frame=0
111 top_field_first=0
112 repeat_pict=0
113
114 [packets_and_frames.packet.3]
115 codec_type=audio
116 stream_index=0
117 pts=1024
118 pts_time=0.023220
119 dts=1024
120 dts_time=0.023220
121 duration=1024
122 duration_time=0.023220
123 convergence_duration=N/A
124 convergence_duration_time=N/A
125 size=2048
126 pos=263143
127 flags=K
128
129 [packets_and_frames.frame.3]
130 media_type=audio
131 key_frame=1
132 pkt_pts=1024
133 pkt_pts_time=0.023220
134 pkt_dts=1024
135 pkt_dts_time=0.023220
136 best_effort_timestamp=1024
137 best_effort_timestamp_time=0.023220
138 pkt_duration=1024
139 pkt_duration_time=0.023220
140 pkt_pos=263143
141 pkt_size=2048
142 sample_fmt=s16
143 nb_samples=1024
144 channels=1
145 channel_layout=unknown
146
147 [packets_and_frames.packet.4]
148 codec_type=video
149 stream_index=1
150 pts=2048
151 pts_time=0.040000
152 dts=2048
153 dts_time=0.040000
154 duration=2048
155 duration_time=0.040000
156 convergence_duration=N/A
157 convergence_duration_time=N/A
158 size=230400
159 pos=265221
160 flags=K
161
162 [packets_and_frames.frame.4]
163 media_type=video
164 key_frame=1
165 pkt_pts=2048
166 pkt_pts_time=0.040000
167 pkt_dts=2048
168 pkt_dts_time=0.040000
169 best_effort_timestamp=2048
170 best_effort_timestamp_time=0.040000
171 pkt_duration=2048
172 pkt_duration_time=0.040000
173 pkt_pos=265221
174 pkt_size=230400
175 width=320
176 height=240
177 pix_fmt=rgb24
178 sample_aspect_ratio=1\:1
179 pict_type=I
180 coded_picture_number=0
181 display_picture_number=0
182 interlaced_frame=0
183 top_field_first=0
184 repeat_pict=0
185
186 [packets_and_frames.packet.5]
187 codec_type=video
188 stream_index=2
189 pts=2048
190 pts_time=0.040000
191 dts=2048
192 dts_time=0.040000
193 duration=2048
194 duration_time=0.040000
195 convergence_duration=N/A
196 convergence_duration_time=N/A
197 size=30000
198 pos=495645
199 flags=K
200
201 [packets_and_frames.frame.5]
202 media_type=video
203 key_frame=1
204 pkt_pts=2048
205 pkt_pts_time=0.040000
206 pkt_dts=2048
207 pkt_dts_time=0.040000
208 best_effort_timestamp=2048
209 best_effort_timestamp_time=0.040000
210 pkt_duration=2048
211 pkt_duration_time=0.040000
212 pkt_pos=495645
213 pkt_size=30000
214 width=100
215 height=100
216 pix_fmt=rgb24
217 sample_aspect_ratio=1\:1
218 pict_type=I
219 coded_picture_number=0
220 display_picture_number=0
221 interlaced_frame=0
222 top_field_first=0
223 repeat_pict=0
224
225 [packets_and_frames.packet.6]
226 codec_type=audio
227 stream_index=0
228 pts=2048
229 pts_time=0.046440
230 dts=2048
231 dts_time=0.046440
232 duration=1024
233 duration_time=0.023220
234 convergence_duration=N/A
235 convergence_duration_time=N/A
236 size=2048
237 pos=525650
238 flags=K
239
240 [packets_and_frames.frame.6]
241 media_type=audio
242 key_frame=1
243 pkt_pts=2048
244 pkt_pts_time=0.046440
245 pkt_dts=2048
246 pkt_dts_time=0.046440
247 best_effort_timestamp=2048
248 best_effort_timestamp_time=0.046440
249 pkt_duration=1024
250 pkt_duration_time=0.023220
251 pkt_pos=525650
252 pkt_size=2048
253 sample_fmt=s16
254 nb_samples=1024
255 channels=1
256 channel_layout=unknown
257
258 [packets_and_frames.packet.7]
259 codec_type=audio
260 stream_index=0
261 pts=3072
262 pts_time=0.069660
263 dts=3072
264 dts_time=0.069660
265 duration=1024
266 duration_time=0.023220
267 convergence_duration=N/A
268 convergence_duration_time=N/A
269 size=2048
270 pos=527721
271 flags=K
272
273 [packets_and_frames.frame.7]
274 media_type=audio
275 key_frame=1
276 pkt_pts=3072
277 pkt_pts_time=0.069660
278 pkt_dts=3072
279 pkt_dts_time=0.069660
280 best_effort_timestamp=3072
281 best_effort_timestamp_time=0.069660
282 pkt_duration=1024
283 pkt_duration_time=0.023220
284 pkt_pos=527721
285 pkt_size=2048
286 sample_fmt=s16
287 nb_samples=1024
288 channels=1
289 channel_layout=unknown
290
291 [packets_and_frames.packet.8]
292 codec_type=video
293 stream_index=1
294 pts=4096
295 pts_time=0.080000
296 dts=4096
297 dts_time=0.080000
298 duration=2048
299 duration_time=0.040000
300 convergence_duration=N/A
301 convergence_duration_time=N/A
302 size=230400
303 pos=529799
304 flags=K
305
306 [packets_and_frames.frame.8]
307 media_type=video
308 key_frame=1
309 pkt_pts=4096
310 pkt_pts_time=0.080000
311 pkt_dts=4096
312 pkt_dts_time=0.080000
313 best_effort_timestamp=4096
314 best_effort_timestamp_time=0.080000
315 pkt_duration=2048
316 pkt_duration_time=0.040000
317 pkt_pos=529799
318 pkt_size=230400
319 width=320
320 height=240
321 pix_fmt=rgb24
322 sample_aspect_ratio=1\:1
323 pict_type=I
324 coded_picture_number=0
325 display_picture_number=0
326 interlaced_frame=0
327 top_field_first=0
328 repeat_pict=0
329
330 [packets_and_frames.packet.9]
331 codec_type=video
332 stream_index=2
333 pts=4096
334 pts_time=0.080000
335 dts=4096
336 dts_time=0.080000
337 duration=2048
338 duration_time=0.040000
339 convergence_duration=N/A
340 convergence_duration_time=N/A
341 size=30000
342 pos=760223
343 flags=K
344
345 [packets_and_frames.frame.9]
346 media_type=video
347 key_frame=1
348 pkt_pts=4096
349 pkt_pts_time=0.080000
350 pkt_dts=4096
351 pkt_dts_time=0.080000
352 best_effort_timestamp=4096
353 best_effort_timestamp_time=0.080000
354 pkt_duration=2048
355 pkt_duration_time=0.040000
356 pkt_pos=760223
357 pkt_size=30000
358 width=100
359 height=100
360 pix_fmt=rgb24
361 sample_aspect_ratio=1\:1
362 pict_type=I
363 coded_picture_number=0
364 display_picture_number=0
365 interlaced_frame=0
366 top_field_first=0
367 repeat_pict=0
368
369 [packets_and_frames.packet.10]
370 codec_type=audio
371 stream_index=0
372 pts=4096
373 pts_time=0.092880
374 dts=4096
375 dts_time=0.092880
376 duration=1024
377 duration_time=0.023220
378 convergence_duration=N/A
379 convergence_duration_time=N/A
380 size=2048
381 pos=790228
382 flags=K
383
384 [packets_and_frames.frame.10]
385 media_type=audio
386 key_frame=1
387 pkt_pts=4096
388 pkt_pts_time=0.092880
389 pkt_dts=4096
390 pkt_dts_time=0.092880
391 best_effort_timestamp=4096
392 best_effort_timestamp_time=0.092880
393 pkt_duration=1024
394 pkt_duration_time=0.023220
395 pkt_pos=790228
396 pkt_size=2048
397 sample_fmt=s16
398 nb_samples=1024
399 channels=1
400 channel_layout=unknown
401
402 [packets_and_frames.packet.11]
403 codec_type=audio
404 stream_index=0
405 pts=5120
406 pts_time=0.116100
407 dts=5120
408 dts_time=0.116100
409 duration=1024
410 duration_time=0.023220
411 convergence_duration=N/A
412 convergence_duration_time=N/A
413 size=2048
414 pos=792299
415 flags=K
416
417 [packets_and_frames.frame.11]
418 media_type=audio
419 key_frame=1
420 pkt_pts=5120
421 pkt_pts_time=0.116100
422 pkt_dts=5120
423 pkt_dts_time=0.116100
424 best_effort_timestamp=5120
425 best_effort_timestamp_time=0.116100
426 pkt_duration=1024
427 pkt_duration_time=0.023220
428 pkt_pos=792299
429 pkt_size=2048
430 sample_fmt=s16
431 nb_samples=1024
432 channels=1
433 channel_layout=unknown
434
435 [packets_and_frames.packet.12]
436 codec_type=video
437 stream_index=1
438 pts=6144
439 pts_time=0.120000
440 dts=6144
441 dts_time=0.120000
442 duration=2048
443 duration_time=0.040000
444 convergence_duration=N/A
445 convergence_duration_time=N/A
446 size=230400
447 pos=794377
448 flags=K
449
450 [packets_and_frames.frame.12]
451 media_type=video
452 key_frame=1
453 pkt_pts=6144
454 pkt_pts_time=0.120000
455 pkt_dts=6144
456 pkt_dts_time=0.120000
457 best_effort_timestamp=6144
458 best_effort_timestamp_time=0.120000
459 pkt_duration=2048
460 pkt_duration_time=0.040000
461 pkt_pos=794377
462 pkt_size=230400
463 width=320
464 height=240
465 pix_fmt=rgb24
466 sample_aspect_ratio=1\:1
467 pict_type=I
468 coded_picture_number=0
469 display_picture_number=0
470 interlaced_frame=0
471 top_field_first=0
472 repeat_pict=0
473
474 [packets_and_frames.packet.13]
475 codec_type=video
476 stream_index=2
477 pts=6144
478 pts_time=0.120000
479 dts=6144
480 dts_time=0.120000
481 duration=2048
482 duration_time=0.040000
483 convergence_duration=N/A
484 convergence_duration_time=N/A
485 size=30000
486 pos=1024801
487 flags=K
488
489 [packets_and_frames.frame.13]
490 media_type=video
491 key_frame=1
492 pkt_pts=6144
493 pkt_pts_time=0.120000
494 pkt_dts=6144
495 pkt_dts_time=0.120000
496 best_effort_timestamp=6144
497 best_effort_timestamp_time=0.120000
498 pkt_duration=2048
499 pkt_duration_time=0.040000
500 pkt_pos=1024801
501 pkt_size=30000
502 width=100
503 height=100
504 pix_fmt=rgb24
505 sample_aspect_ratio=1\:1
506 pict_type=I
507 coded_picture_number=0
508 display_picture_number=0
509 interlaced_frame=0
510 top_field_first=0
511 repeat_pict=0
512
513 [streams.stream.0]
514 index=0
515 codec_name=pcm_s16le
516 profile=unknown
517 codec_type=audio
518 codec_time_base=1/44100
519 codec_tag_string=PSD[16]
520 codec_tag=0x10445350
521 sample_fmt=s16
522 sample_rate=44100
523 channels=1
524 channel_layout=unknown
525 bits_per_sample=16
526 id=N/A
527 r_frame_rate=0/0
528 avg_frame_rate=0/0
529 time_base=1/44100
530 start_pts=0
531 start_time=0.000000
532 duration_ts=N/A
533 duration=N/A
534 bit_rate=705600
535 nb_frames=N/A
536 nb_read_frames=6
537 nb_read_packets=6
538
539 [streams.stream.0.disposition]
540 default=0
541 dub=0
542 original=0
543 comment=0
544 lyrics=0
545 karaoke=0
546 forced=0
547 hearing_impaired=0
548 visual_impaired=0
549 clean_effects=0
550 attached_pic=0
551
552 [streams.stream.0.tags]
553 E=mc²
554 encoder=Lavc pcm_s16le
555
556 [streams.stream.1]
557 index=1
558 codec_name=rawvideo
559 profile=unknown
560 codec_type=video
561 codec_time_base=1/51200
562 codec_tag_string=RGB[24]
563 codec_tag=0x18424752
564 width=320
565 height=240
566 has_b_frames=0
567 sample_aspect_ratio=1\:1
568 display_aspect_ratio=4\:3
569 pix_fmt=rgb24
570 level=-99
571 timecode=N/A
572 id=N/A
573 r_frame_rate=25/1
574 avg_frame_rate=25/1
575 time_base=1/51200
576 start_pts=0
577 start_time=0.000000
578 duration_ts=N/A
579 duration=N/A
580 bit_rate=N/A
581 nb_frames=N/A
582 nb_read_frames=4
583 nb_read_packets=4
584
585 [streams.stream.1.disposition]
586 default=0
587 dub=0
588 original=0
589 comment=0
590 lyrics=0
591 karaoke=0
592 forced=0
593 hearing_impaired=0
594 visual_impaired=0
595 clean_effects=0
596 attached_pic=0
597
598 [streams.stream.1.tags]
599 title=foobar
600 duration_ts=field-and-tags-conflict-attempt
601 encoder=Lavc rawvideo
602
603 [streams.stream.2]
604 index=2
605 codec_name=rawvideo
606 profile=unknown
607 codec_type=video
608 codec_time_base=1/51200
609 codec_tag_string=RGB[24]
610 codec_tag=0x18424752
611 width=100
612 height=100
613 has_b_frames=0
614 sample_aspect_ratio=1\:1
615 display_aspect_ratio=1\:1
616 pix_fmt=rgb24
617 level=-99
618 timecode=N/A
619 id=N/A
620 r_frame_rate=25/1
621 avg_frame_rate=25/1
622 time_base=1/51200
623 start_pts=0
624 start_time=0.000000
625 duration_ts=N/A
626 duration=N/A
627 bit_rate=N/A
628 nb_frames=N/A
629 nb_read_frames=4
630 nb_read_packets=4
631
632 [streams.stream.2.disposition]
633 default=0
634 dub=0
635 original=0
636 comment=0
637 lyrics=0
638 karaoke=0
639 forced=0
640 hearing_impaired=0
641 visual_impaired=0
642 clean_effects=0
643 attached_pic=0
644
645 [streams.stream.2.tags]
646 encoder=Lavc rawvideo
647
648 [format]
649 filename=tests/data/ffprobe-test.nut
650 nb_streams=3
651 nb_programs=0
652 format_name=nut
653 start_time=0.000000
654 duration=0.120000
655 size=1054882
656 bit_rate=70325466
657 probe_score=100
658
659 [format.tags]
660 title=ffprobe test file
661 comment='A comment with CSV, XML & JSON special chars'\: <tag value\="x">
662 comment2=I ♥ Üñîçød€