fate: Add MXF D10/DNXHD/DV25 probe tests
[ffmpeg.git] / tests / ref / fate / mxf-probe-dnxhd
1 [STREAM]
2 index=0
3 codec_name=unknown
4 profile=unknown
5 codec_type=data
6 codec_tag_string=[0][0][0][0]
7 codec_tag=0x0000
8 id=N/A
9 r_frame_rate=0/0
10 avg_frame_rate=0/0
11 time_base=1/90000
12 start_pts=0
13 start_time=0.000000
14 duration_ts=22523
15 duration=0.250256
16 bit_rate=N/A
17 max_bit_rate=N/A
18 bits_per_raw_sample=N/A
19 nb_frames=N/A
20 nb_read_frames=N/A
21 nb_read_packets=N/A
22 DISPOSITION:default=0
23 DISPOSITION:dub=0
24 DISPOSITION:original=0
25 DISPOSITION:comment=0
26 DISPOSITION:lyrics=0
27 DISPOSITION:karaoke=0
28 DISPOSITION:forced=0
29 DISPOSITION:hearing_impaired=0
30 DISPOSITION:visual_impaired=0
31 DISPOSITION:clean_effects=0
32 DISPOSITION:attached_pic=0
33 DISPOSITION:timed_thumbnails=0
34 TAG:file_package_umid=0x060A2B340101010101010F001300000057DEEA25B7D80C94060E2B347F7F2A80
35 TAG:data_type=audio
36 [/STREAM]
37 [STREAM]
38 index=1
39 codec_name=unknown
40 profile=unknown
41 codec_type=data
42 codec_tag_string=[0][0][0][0]
43 codec_tag=0x0000
44 id=N/A
45 r_frame_rate=0/0
46 avg_frame_rate=0/0
47 time_base=1/90000
48 start_pts=0
49 start_time=0.000000
50 duration_ts=22523
51 duration=0.250256
52 bit_rate=N/A
53 max_bit_rate=N/A
54 bits_per_raw_sample=N/A
55 nb_frames=N/A
56 nb_read_frames=N/A
57 nb_read_packets=N/A
58 DISPOSITION:default=0
59 DISPOSITION:dub=0
60 DISPOSITION:original=0
61 DISPOSITION:comment=0
62 DISPOSITION:lyrics=0
63 DISPOSITION:karaoke=0
64 DISPOSITION:forced=0
65 DISPOSITION:hearing_impaired=0
66 DISPOSITION:visual_impaired=0
67 DISPOSITION:clean_effects=0
68 DISPOSITION:attached_pic=0
69 DISPOSITION:timed_thumbnails=0
70 TAG:file_package_umid=0x060A2B340101010101010F001300000057DEEA25B7F40C94060E2B347F7F2A80
71 TAG:data_type=audio
72 [/STREAM]
73 [STREAM]
74 index=2
75 codec_name=unknown
76 profile=unknown
77 codec_type=data
78 codec_tag_string=[0][0][0][0]
79 codec_tag=0x0000
80 id=N/A
81 r_frame_rate=0/0
82 avg_frame_rate=0/0
83 time_base=1/90000
84 start_pts=0
85 start_time=0.000000
86 duration_ts=22523
87 duration=0.250256
88 bit_rate=N/A
89 max_bit_rate=N/A
90 bits_per_raw_sample=N/A
91 nb_frames=N/A
92 nb_read_frames=N/A
93 nb_read_packets=N/A
94 DISPOSITION:default=0
95 DISPOSITION:dub=0
96 DISPOSITION:original=0
97 DISPOSITION:comment=0
98 DISPOSITION:lyrics=0
99 DISPOSITION:karaoke=0
100 DISPOSITION:forced=0
101 DISPOSITION:hearing_impaired=0
102 DISPOSITION:visual_impaired=0
103 DISPOSITION:clean_effects=0
104 DISPOSITION:attached_pic=0
105 DISPOSITION:timed_thumbnails=0
106 TAG:file_package_umid=0x060A2B340101010101010F001300000057DEEA25B8050C94060E2B347F7F2A80
107 TAG:data_type=video
108 [/STREAM]
109 [STREAM]
110 index=3
111 codec_name=dnxhd
112 profile=1
113 codec_type=video
114 codec_time_base=0/1
115 codec_tag_string=[0][0][0][0]
116 codec_tag=0x0000
117 width=640
118 height=480
119 coded_width=640
120 coded_height=480
121 has_b_frames=0
122 sample_aspect_ratio=1:1
123 display_aspect_ratio=4:3
124 pix_fmt=yuv422p
125 level=-99
126 color_range=N/A
127 color_space=bt709
128 color_transfer=unknown
129 color_primaries=unknown
130 chroma_location=unspecified
131 field_order=progressive
132 timecode=N/A
133 refs=1
134 id=N/A
135 r_frame_rate=24000/1001
136 avg_frame_rate=0/0
137 time_base=1001/24000
138 start_pts=0
139 start_time=0.000000
140 duration_ts=6
141 duration=0.250250
142 bit_rate=N/A
143 max_bit_rate=N/A
144 bits_per_raw_sample=8
145 nb_frames=N/A
146 nb_read_frames=N/A
147 nb_read_packets=N/A
148 DISPOSITION:default=0
149 DISPOSITION:dub=0
150 DISPOSITION:original=0
151 DISPOSITION:comment=0
152 DISPOSITION:lyrics=0
153 DISPOSITION:karaoke=0
154 DISPOSITION:forced=0
155 DISPOSITION:hearing_impaired=0
156 DISPOSITION:visual_impaired=0
157 DISPOSITION:clean_effects=0
158 DISPOSITION:attached_pic=0
159 DISPOSITION:timed_thumbnails=0
160 TAG:file_package_umid=0x060A2B340101010101010F001300000057DEEA25B84D0C94060E2B347F7F2A80
161 TAG:file_package_name=dnxhr_export.aaf
162 TAG:reel_umid=0x060A2B340101010101010F001300000057DEEA1570895313060E2B347F7F2A80
163 TAG:reel_name=sample_footage
164 TAG:timecode=01:00:00:00
165 [/STREAM]
166 [FORMAT]
167 format_name=mxf
168 duration=0.250250
169 bit_rate=25340195
170 TAG:project_name=UHD
171 TAG:uid=784c8132-ae36-ed4d-b0ff-2edf1f3f2d92
172 TAG:generation_uid=b6bcfcab-70ff-7331-c47c-478869de11d2
173 TAG:application_platform=AAFSDK (MacOS X)
174 TAG:modification_date=2016-09-18T19:25:25.000000Z
175 TAG:product_uid=acfbf03a-4f42-a231-d0b7-c06ecd3d4ad7
176 TAG:product_version=Unknown version
177 TAG:product_name=Avid Media Composer 8.6.3.43955
178 TAG:company_name=Avid Technology, Inc.
179 TAG:material_package_umid=0x060A2B340101010101010F001300000057DEEA1570665313060E2B347F7F2A80
180 TAG:material_package_name=sample_footage
181 TAG:comment_UNC Path=/Users/mark/Dev/pyaaf/example/work/dnxhr_export.aaf
182 [/FORMAT]