ffprobe: print stream channel_layout when available
[ffmpeg.git] / tests / ref / fate / ffprobe_flat
1 packets_and_frames.packet.0.codec_type="audio"
2 packets_and_frames.packet.0.stream_index=0
3 packets_and_frames.packet.0.pts=0
4 packets_and_frames.packet.0.pts_time="0.000000"
5 packets_and_frames.packet.0.dts=0
6 packets_and_frames.packet.0.dts_time="0.000000"
7 packets_and_frames.packet.0.duration=1024
8 packets_and_frames.packet.0.duration_time="0.023220"
9 packets_and_frames.packet.0.convergence_duration="N/A"
10 packets_and_frames.packet.0.convergence_duration_time="N/A"
11 packets_and_frames.packet.0.size="2048"
12 packets_and_frames.packet.0.pos="572"
13 packets_and_frames.packet.0.flags="K"
14 packets_and_frames.frame.0.media_type="audio"
15 packets_and_frames.frame.0.key_frame=1
16 packets_and_frames.frame.0.pkt_pts=0
17 packets_and_frames.frame.0.pkt_pts_time="0.000000"
18 packets_and_frames.frame.0.pkt_dts=0
19 packets_and_frames.frame.0.pkt_dts_time="0.000000"
20 packets_and_frames.frame.0.pkt_duration=1024
21 packets_and_frames.frame.0.pkt_duration_time="0.023220"
22 packets_and_frames.frame.0.pkt_pos="572"
23 packets_and_frames.frame.0.pkt_size="2048"
24 packets_and_frames.frame.0.sample_fmt="s16"
25 packets_and_frames.frame.0.nb_samples=1024
26 packets_and_frames.frame.0.channels=1
27 packets_and_frames.frame.0.channel_layout="unknown"
28 packets_and_frames.packet.1.codec_type="video"
29 packets_and_frames.packet.1.stream_index=1
30 packets_and_frames.packet.1.pts=0
31 packets_and_frames.packet.1.pts_time="0.000000"
32 packets_and_frames.packet.1.dts=0
33 packets_and_frames.packet.1.dts_time="0.000000"
34 packets_and_frames.packet.1.duration=2048
35 packets_and_frames.packet.1.duration_time="0.040000"
36 packets_and_frames.packet.1.convergence_duration="N/A"
37 packets_and_frames.packet.1.convergence_duration_time="N/A"
38 packets_and_frames.packet.1.size="230400"
39 packets_and_frames.packet.1.pos="2647"
40 packets_and_frames.packet.1.flags="K"
41 packets_and_frames.frame.1.media_type="video"
42 packets_and_frames.frame.1.key_frame=1
43 packets_and_frames.frame.1.pkt_pts=0
44 packets_and_frames.frame.1.pkt_pts_time="0.000000"
45 packets_and_frames.frame.1.pkt_dts=0
46 packets_and_frames.frame.1.pkt_dts_time="0.000000"
47 packets_and_frames.frame.1.pkt_duration=2048
48 packets_and_frames.frame.1.pkt_duration_time="0.040000"
49 packets_and_frames.frame.1.pkt_pos="2647"
50 packets_and_frames.frame.1.pkt_size="N/A"
51 packets_and_frames.frame.1.width=320
52 packets_and_frames.frame.1.height=240
53 packets_and_frames.frame.1.pix_fmt="rgb24"
54 packets_and_frames.frame.1.sample_aspect_ratio="1:1"
55 packets_and_frames.frame.1.pict_type="I"
56 packets_and_frames.frame.1.coded_picture_number=0
57 packets_and_frames.frame.1.display_picture_number=0
58 packets_and_frames.frame.1.interlaced_frame=0
59 packets_and_frames.frame.1.top_field_first=0
60 packets_and_frames.frame.1.repeat_pict=0
61 packets_and_frames.packet.2.codec_type="video"
62 packets_and_frames.packet.2.stream_index=2
63 packets_and_frames.packet.2.pts=0
64 packets_and_frames.packet.2.pts_time="0.000000"
65 packets_and_frames.packet.2.dts=0
66 packets_and_frames.packet.2.dts_time="0.000000"
67 packets_and_frames.packet.2.duration=2048
68 packets_and_frames.packet.2.duration_time="0.040000"
69 packets_and_frames.packet.2.convergence_duration="N/A"
70 packets_and_frames.packet.2.convergence_duration_time="N/A"
71 packets_and_frames.packet.2.size="30000"
72 packets_and_frames.packet.2.pos="233068"
73 packets_and_frames.packet.2.flags="K"
74 packets_and_frames.frame.2.media_type="video"
75 packets_and_frames.frame.2.key_frame=1
76 packets_and_frames.frame.2.pkt_pts=0
77 packets_and_frames.frame.2.pkt_pts_time="0.000000"
78 packets_and_frames.frame.2.pkt_dts=0
79 packets_and_frames.frame.2.pkt_dts_time="0.000000"
80 packets_and_frames.frame.2.pkt_duration=2048
81 packets_and_frames.frame.2.pkt_duration_time="0.040000"
82 packets_and_frames.frame.2.pkt_pos="233068"
83 packets_and_frames.frame.2.pkt_size="N/A"
84 packets_and_frames.frame.2.width=100
85 packets_and_frames.frame.2.height=100
86 packets_and_frames.frame.2.pix_fmt="rgb24"
87 packets_and_frames.frame.2.sample_aspect_ratio="1:1"
88 packets_and_frames.frame.2.pict_type="I"
89 packets_and_frames.frame.2.coded_picture_number=0
90 packets_and_frames.frame.2.display_picture_number=0
91 packets_and_frames.frame.2.interlaced_frame=0
92 packets_and_frames.frame.2.top_field_first=0
93 packets_and_frames.frame.2.repeat_pict=0
94 packets_and_frames.packet.3.codec_type="audio"
95 packets_and_frames.packet.3.stream_index=0
96 packets_and_frames.packet.3.pts=1024
97 packets_and_frames.packet.3.pts_time="0.023220"
98 packets_and_frames.packet.3.dts=1024
99 packets_and_frames.packet.3.dts_time="0.023220"
100 packets_and_frames.packet.3.duration=1024
101 packets_and_frames.packet.3.duration_time="0.023220"
102 packets_and_frames.packet.3.convergence_duration="N/A"
103 packets_and_frames.packet.3.convergence_duration_time="N/A"
104 packets_and_frames.packet.3.size="2048"
105 packets_and_frames.packet.3.pos="263073"
106 packets_and_frames.packet.3.flags="K"
107 packets_and_frames.frame.3.media_type="audio"
108 packets_and_frames.frame.3.key_frame=1
109 packets_and_frames.frame.3.pkt_pts=1024
110 packets_and_frames.frame.3.pkt_pts_time="0.023220"
111 packets_and_frames.frame.3.pkt_dts=1024
112 packets_and_frames.frame.3.pkt_dts_time="0.023220"
113 packets_and_frames.frame.3.pkt_duration=1024
114 packets_and_frames.frame.3.pkt_duration_time="0.023220"
115 packets_and_frames.frame.3.pkt_pos="263073"
116 packets_and_frames.frame.3.pkt_size="2048"
117 packets_and_frames.frame.3.sample_fmt="s16"
118 packets_and_frames.frame.3.nb_samples=1024
119 packets_and_frames.frame.3.channels=1
120 packets_and_frames.frame.3.channel_layout="unknown"
121 packets_and_frames.packet.4.codec_type="video"
122 packets_and_frames.packet.4.stream_index=1
123 packets_and_frames.packet.4.pts=2048
124 packets_and_frames.packet.4.pts_time="0.040000"
125 packets_and_frames.packet.4.dts=2048
126 packets_and_frames.packet.4.dts_time="0.040000"
127 packets_and_frames.packet.4.duration=2048
128 packets_and_frames.packet.4.duration_time="0.040000"
129 packets_and_frames.packet.4.convergence_duration="N/A"
130 packets_and_frames.packet.4.convergence_duration_time="N/A"
131 packets_and_frames.packet.4.size="230400"
132 packets_and_frames.packet.4.pos="265151"
133 packets_and_frames.packet.4.flags="K"
134 packets_and_frames.frame.4.media_type="video"
135 packets_and_frames.frame.4.key_frame=1
136 packets_and_frames.frame.4.pkt_pts=2048
137 packets_and_frames.frame.4.pkt_pts_time="0.040000"
138 packets_and_frames.frame.4.pkt_dts=2048
139 packets_and_frames.frame.4.pkt_dts_time="0.040000"
140 packets_and_frames.frame.4.pkt_duration=2048
141 packets_and_frames.frame.4.pkt_duration_time="0.040000"
142 packets_and_frames.frame.4.pkt_pos="265151"
143 packets_and_frames.frame.4.pkt_size="N/A"
144 packets_and_frames.frame.4.width=320
145 packets_and_frames.frame.4.height=240
146 packets_and_frames.frame.4.pix_fmt="rgb24"
147 packets_and_frames.frame.4.sample_aspect_ratio="1:1"
148 packets_and_frames.frame.4.pict_type="I"
149 packets_and_frames.frame.4.coded_picture_number=0
150 packets_and_frames.frame.4.display_picture_number=0
151 packets_and_frames.frame.4.interlaced_frame=0
152 packets_and_frames.frame.4.top_field_first=0
153 packets_and_frames.frame.4.repeat_pict=0
154 packets_and_frames.packet.5.codec_type="video"
155 packets_and_frames.packet.5.stream_index=2
156 packets_and_frames.packet.5.pts=2048
157 packets_and_frames.packet.5.pts_time="0.040000"
158 packets_and_frames.packet.5.dts=2048
159 packets_and_frames.packet.5.dts_time="0.040000"
160 packets_and_frames.packet.5.duration=2048
161 packets_and_frames.packet.5.duration_time="0.040000"
162 packets_and_frames.packet.5.convergence_duration="N/A"
163 packets_and_frames.packet.5.convergence_duration_time="N/A"
164 packets_and_frames.packet.5.size="30000"
165 packets_and_frames.packet.5.pos="495575"
166 packets_and_frames.packet.5.flags="K"
167 packets_and_frames.frame.5.media_type="video"
168 packets_and_frames.frame.5.key_frame=1
169 packets_and_frames.frame.5.pkt_pts=2048
170 packets_and_frames.frame.5.pkt_pts_time="0.040000"
171 packets_and_frames.frame.5.pkt_dts=2048
172 packets_and_frames.frame.5.pkt_dts_time="0.040000"
173 packets_and_frames.frame.5.pkt_duration=2048
174 packets_and_frames.frame.5.pkt_duration_time="0.040000"
175 packets_and_frames.frame.5.pkt_pos="495575"
176 packets_and_frames.frame.5.pkt_size="N/A"
177 packets_and_frames.frame.5.width=100
178 packets_and_frames.frame.5.height=100
179 packets_and_frames.frame.5.pix_fmt="rgb24"
180 packets_and_frames.frame.5.sample_aspect_ratio="1:1"
181 packets_and_frames.frame.5.pict_type="I"
182 packets_and_frames.frame.5.coded_picture_number=0
183 packets_and_frames.frame.5.display_picture_number=0
184 packets_and_frames.frame.5.interlaced_frame=0
185 packets_and_frames.frame.5.top_field_first=0
186 packets_and_frames.frame.5.repeat_pict=0
187 packets_and_frames.packet.6.codec_type="audio"
188 packets_and_frames.packet.6.stream_index=0
189 packets_and_frames.packet.6.pts=2048
190 packets_and_frames.packet.6.pts_time="0.046440"
191 packets_and_frames.packet.6.dts=2048
192 packets_and_frames.packet.6.dts_time="0.046440"
193 packets_and_frames.packet.6.duration=1024
194 packets_and_frames.packet.6.duration_time="0.023220"
195 packets_and_frames.packet.6.convergence_duration="N/A"
196 packets_and_frames.packet.6.convergence_duration_time="N/A"
197 packets_and_frames.packet.6.size="2048"
198 packets_and_frames.packet.6.pos="525580"
199 packets_and_frames.packet.6.flags="K"
200 packets_and_frames.frame.6.media_type="audio"
201 packets_and_frames.frame.6.key_frame=1
202 packets_and_frames.frame.6.pkt_pts=2048
203 packets_and_frames.frame.6.pkt_pts_time="0.046440"
204 packets_and_frames.frame.6.pkt_dts=2048
205 packets_and_frames.frame.6.pkt_dts_time="0.046440"
206 packets_and_frames.frame.6.pkt_duration=1024
207 packets_and_frames.frame.6.pkt_duration_time="0.023220"
208 packets_and_frames.frame.6.pkt_pos="525580"
209 packets_and_frames.frame.6.pkt_size="2048"
210 packets_and_frames.frame.6.sample_fmt="s16"
211 packets_and_frames.frame.6.nb_samples=1024
212 packets_and_frames.frame.6.channels=1
213 packets_and_frames.frame.6.channel_layout="unknown"
214 packets_and_frames.packet.7.codec_type="audio"
215 packets_and_frames.packet.7.stream_index=0
216 packets_and_frames.packet.7.pts=3072
217 packets_and_frames.packet.7.pts_time="0.069660"
218 packets_and_frames.packet.7.dts=3072
219 packets_and_frames.packet.7.dts_time="0.069660"
220 packets_and_frames.packet.7.duration=1024
221 packets_and_frames.packet.7.duration_time="0.023220"
222 packets_and_frames.packet.7.convergence_duration="N/A"
223 packets_and_frames.packet.7.convergence_duration_time="N/A"
224 packets_and_frames.packet.7.size="2048"
225 packets_and_frames.packet.7.pos="527651"
226 packets_and_frames.packet.7.flags="K"
227 packets_and_frames.frame.7.media_type="audio"
228 packets_and_frames.frame.7.key_frame=1
229 packets_and_frames.frame.7.pkt_pts=3072
230 packets_and_frames.frame.7.pkt_pts_time="0.069660"
231 packets_and_frames.frame.7.pkt_dts=3072
232 packets_and_frames.frame.7.pkt_dts_time="0.069660"
233 packets_and_frames.frame.7.pkt_duration=1024
234 packets_and_frames.frame.7.pkt_duration_time="0.023220"
235 packets_and_frames.frame.7.pkt_pos="527651"
236 packets_and_frames.frame.7.pkt_size="2048"
237 packets_and_frames.frame.7.sample_fmt="s16"
238 packets_and_frames.frame.7.nb_samples=1024
239 packets_and_frames.frame.7.channels=1
240 packets_and_frames.frame.7.channel_layout="unknown"
241 packets_and_frames.packet.8.codec_type="video"
242 packets_and_frames.packet.8.stream_index=1
243 packets_and_frames.packet.8.pts=4096
244 packets_and_frames.packet.8.pts_time="0.080000"
245 packets_and_frames.packet.8.dts=4096
246 packets_and_frames.packet.8.dts_time="0.080000"
247 packets_and_frames.packet.8.duration=2048
248 packets_and_frames.packet.8.duration_time="0.040000"
249 packets_and_frames.packet.8.convergence_duration="N/A"
250 packets_and_frames.packet.8.convergence_duration_time="N/A"
251 packets_and_frames.packet.8.size="230400"
252 packets_and_frames.packet.8.pos="529729"
253 packets_and_frames.packet.8.flags="K"
254 packets_and_frames.frame.8.media_type="video"
255 packets_and_frames.frame.8.key_frame=1
256 packets_and_frames.frame.8.pkt_pts=4096
257 packets_and_frames.frame.8.pkt_pts_time="0.080000"
258 packets_and_frames.frame.8.pkt_dts=4096
259 packets_and_frames.frame.8.pkt_dts_time="0.080000"
260 packets_and_frames.frame.8.pkt_duration=2048
261 packets_and_frames.frame.8.pkt_duration_time="0.040000"
262 packets_and_frames.frame.8.pkt_pos="529729"
263 packets_and_frames.frame.8.pkt_size="N/A"
264 packets_and_frames.frame.8.width=320
265 packets_and_frames.frame.8.height=240
266 packets_and_frames.frame.8.pix_fmt="rgb24"
267 packets_and_frames.frame.8.sample_aspect_ratio="1:1"
268 packets_and_frames.frame.8.pict_type="I"
269 packets_and_frames.frame.8.coded_picture_number=0
270 packets_and_frames.frame.8.display_picture_number=0
271 packets_and_frames.frame.8.interlaced_frame=0
272 packets_and_frames.frame.8.top_field_first=0
273 packets_and_frames.frame.8.repeat_pict=0
274 packets_and_frames.packet.9.codec_type="video"
275 packets_and_frames.packet.9.stream_index=2
276 packets_and_frames.packet.9.pts=4096
277 packets_and_frames.packet.9.pts_time="0.080000"
278 packets_and_frames.packet.9.dts=4096
279 packets_and_frames.packet.9.dts_time="0.080000"
280 packets_and_frames.packet.9.duration=2048
281 packets_and_frames.packet.9.duration_time="0.040000"
282 packets_and_frames.packet.9.convergence_duration="N/A"
283 packets_and_frames.packet.9.convergence_duration_time="N/A"
284 packets_and_frames.packet.9.size="30000"
285 packets_and_frames.packet.9.pos="760153"
286 packets_and_frames.packet.9.flags="K"
287 packets_and_frames.frame.9.media_type="video"
288 packets_and_frames.frame.9.key_frame=1
289 packets_and_frames.frame.9.pkt_pts=4096
290 packets_and_frames.frame.9.pkt_pts_time="0.080000"
291 packets_and_frames.frame.9.pkt_dts=4096
292 packets_and_frames.frame.9.pkt_dts_time="0.080000"
293 packets_and_frames.frame.9.pkt_duration=2048
294 packets_and_frames.frame.9.pkt_duration_time="0.040000"
295 packets_and_frames.frame.9.pkt_pos="760153"
296 packets_and_frames.frame.9.pkt_size="N/A"
297 packets_and_frames.frame.9.width=100
298 packets_and_frames.frame.9.height=100
299 packets_and_frames.frame.9.pix_fmt="rgb24"
300 packets_and_frames.frame.9.sample_aspect_ratio="1:1"
301 packets_and_frames.frame.9.pict_type="I"
302 packets_and_frames.frame.9.coded_picture_number=0
303 packets_and_frames.frame.9.display_picture_number=0
304 packets_and_frames.frame.9.interlaced_frame=0
305 packets_and_frames.frame.9.top_field_first=0
306 packets_and_frames.frame.9.repeat_pict=0
307 packets_and_frames.packet.10.codec_type="audio"
308 packets_and_frames.packet.10.stream_index=0
309 packets_and_frames.packet.10.pts=4096
310 packets_and_frames.packet.10.pts_time="0.092880"
311 packets_and_frames.packet.10.dts=4096
312 packets_and_frames.packet.10.dts_time="0.092880"
313 packets_and_frames.packet.10.duration=1024
314 packets_and_frames.packet.10.duration_time="0.023220"
315 packets_and_frames.packet.10.convergence_duration="N/A"
316 packets_and_frames.packet.10.convergence_duration_time="N/A"
317 packets_and_frames.packet.10.size="2048"
318 packets_and_frames.packet.10.pos="790158"
319 packets_and_frames.packet.10.flags="K"
320 packets_and_frames.frame.10.media_type="audio"
321 packets_and_frames.frame.10.key_frame=1
322 packets_and_frames.frame.10.pkt_pts=4096
323 packets_and_frames.frame.10.pkt_pts_time="0.092880"
324 packets_and_frames.frame.10.pkt_dts=4096
325 packets_and_frames.frame.10.pkt_dts_time="0.092880"
326 packets_and_frames.frame.10.pkt_duration=1024
327 packets_and_frames.frame.10.pkt_duration_time="0.023220"
328 packets_and_frames.frame.10.pkt_pos="790158"
329 packets_and_frames.frame.10.pkt_size="2048"
330 packets_and_frames.frame.10.sample_fmt="s16"
331 packets_and_frames.frame.10.nb_samples=1024
332 packets_and_frames.frame.10.channels=1
333 packets_and_frames.frame.10.channel_layout="unknown"
334 packets_and_frames.packet.11.codec_type="audio"
335 packets_and_frames.packet.11.stream_index=0
336 packets_and_frames.packet.11.pts=5120
337 packets_and_frames.packet.11.pts_time="0.116100"
338 packets_and_frames.packet.11.dts=5120
339 packets_and_frames.packet.11.dts_time="0.116100"
340 packets_and_frames.packet.11.duration=1024
341 packets_and_frames.packet.11.duration_time="0.023220"
342 packets_and_frames.packet.11.convergence_duration="N/A"
343 packets_and_frames.packet.11.convergence_duration_time="N/A"
344 packets_and_frames.packet.11.size="2048"
345 packets_and_frames.packet.11.pos="792229"
346 packets_and_frames.packet.11.flags="K"
347 packets_and_frames.frame.11.media_type="audio"
348 packets_and_frames.frame.11.key_frame=1
349 packets_and_frames.frame.11.pkt_pts=5120
350 packets_and_frames.frame.11.pkt_pts_time="0.116100"
351 packets_and_frames.frame.11.pkt_dts=5120
352 packets_and_frames.frame.11.pkt_dts_time="0.116100"
353 packets_and_frames.frame.11.pkt_duration=1024
354 packets_and_frames.frame.11.pkt_duration_time="0.023220"
355 packets_and_frames.frame.11.pkt_pos="792229"
356 packets_and_frames.frame.11.pkt_size="2048"
357 packets_and_frames.frame.11.sample_fmt="s16"
358 packets_and_frames.frame.11.nb_samples=1024
359 packets_and_frames.frame.11.channels=1
360 packets_and_frames.frame.11.channel_layout="unknown"
361 packets_and_frames.packet.12.codec_type="video"
362 packets_and_frames.packet.12.stream_index=1
363 packets_and_frames.packet.12.pts=6144
364 packets_and_frames.packet.12.pts_time="0.120000"
365 packets_and_frames.packet.12.dts=6144
366 packets_and_frames.packet.12.dts_time="0.120000"
367 packets_and_frames.packet.12.duration=2048
368 packets_and_frames.packet.12.duration_time="0.040000"
369 packets_and_frames.packet.12.convergence_duration="N/A"
370 packets_and_frames.packet.12.convergence_duration_time="N/A"
371 packets_and_frames.packet.12.size="230400"
372 packets_and_frames.packet.12.pos="794307"
373 packets_and_frames.packet.12.flags="K"
374 packets_and_frames.frame.12.media_type="video"
375 packets_and_frames.frame.12.key_frame=1
376 packets_and_frames.frame.12.pkt_pts=6144
377 packets_and_frames.frame.12.pkt_pts_time="0.120000"
378 packets_and_frames.frame.12.pkt_dts=6144
379 packets_and_frames.frame.12.pkt_dts_time="0.120000"
380 packets_and_frames.frame.12.pkt_duration=2048
381 packets_and_frames.frame.12.pkt_duration_time="0.040000"
382 packets_and_frames.frame.12.pkt_pos="794307"
383 packets_and_frames.frame.12.pkt_size="N/A"
384 packets_and_frames.frame.12.width=320
385 packets_and_frames.frame.12.height=240
386 packets_and_frames.frame.12.pix_fmt="rgb24"
387 packets_and_frames.frame.12.sample_aspect_ratio="1:1"
388 packets_and_frames.frame.12.pict_type="I"
389 packets_and_frames.frame.12.coded_picture_number=0
390 packets_and_frames.frame.12.display_picture_number=0
391 packets_and_frames.frame.12.interlaced_frame=0
392 packets_and_frames.frame.12.top_field_first=0
393 packets_and_frames.frame.12.repeat_pict=0
394 packets_and_frames.packet.13.codec_type="video"
395 packets_and_frames.packet.13.stream_index=2
396 packets_and_frames.packet.13.pts=6144
397 packets_and_frames.packet.13.pts_time="0.120000"
398 packets_and_frames.packet.13.dts=6144
399 packets_and_frames.packet.13.dts_time="0.120000"
400 packets_and_frames.packet.13.duration=2048
401 packets_and_frames.packet.13.duration_time="0.040000"
402 packets_and_frames.packet.13.convergence_duration="N/A"
403 packets_and_frames.packet.13.convergence_duration_time="N/A"
404 packets_and_frames.packet.13.size="30000"
405 packets_and_frames.packet.13.pos="1024731"
406 packets_and_frames.packet.13.flags="K"
407 packets_and_frames.frame.13.media_type="video"
408 packets_and_frames.frame.13.key_frame=1
409 packets_and_frames.frame.13.pkt_pts=6144
410 packets_and_frames.frame.13.pkt_pts_time="0.120000"
411 packets_and_frames.frame.13.pkt_dts=6144
412 packets_and_frames.frame.13.pkt_dts_time="0.120000"
413 packets_and_frames.frame.13.pkt_duration=2048
414 packets_and_frames.frame.13.pkt_duration_time="0.040000"
415 packets_and_frames.frame.13.pkt_pos="1024731"
416 packets_and_frames.frame.13.pkt_size="N/A"
417 packets_and_frames.frame.13.width=100
418 packets_and_frames.frame.13.height=100
419 packets_and_frames.frame.13.pix_fmt="rgb24"
420 packets_and_frames.frame.13.sample_aspect_ratio="1:1"
421 packets_and_frames.frame.13.pict_type="I"
422 packets_and_frames.frame.13.coded_picture_number=0
423 packets_and_frames.frame.13.display_picture_number=0
424 packets_and_frames.frame.13.interlaced_frame=0
425 packets_and_frames.frame.13.top_field_first=0
426 packets_and_frames.frame.13.repeat_pict=0
427 streams.stream.0.index=0
428 streams.stream.0.codec_name="pcm_s16le"
429 streams.stream.0.profile="unknown"
430 streams.stream.0.codec_type="audio"
431 streams.stream.0.codec_time_base="1/44100"
432 streams.stream.0.codec_tag_string="PSD[16]"
433 streams.stream.0.codec_tag="0x10445350"
434 streams.stream.0.sample_fmt="s16"
435 streams.stream.0.sample_rate="44100"
436 streams.stream.0.channels=1
437 streams.stream.0.channel_layout="unknown"
438 streams.stream.0.bits_per_sample=16
439 streams.stream.0.id="N/A"
440 streams.stream.0.r_frame_rate="0/0"
441 streams.stream.0.avg_frame_rate="0/0"
442 streams.stream.0.time_base="1/44100"
443 streams.stream.0.start_pts=0
444 streams.stream.0.start_time="0.000000"
445 streams.stream.0.duration_ts="N/A"
446 streams.stream.0.duration="N/A"
447 streams.stream.0.bit_rate="705600"
448 streams.stream.0.nb_frames="N/A"
449 streams.stream.0.nb_read_frames="6"
450 streams.stream.0.nb_read_packets="6"
451 streams.stream.0.disposition.default=0
452 streams.stream.0.disposition.dub=0
453 streams.stream.0.disposition.original=0
454 streams.stream.0.disposition.comment=0
455 streams.stream.0.disposition.lyrics=0
456 streams.stream.0.disposition.karaoke=0
457 streams.stream.0.disposition.forced=0
458 streams.stream.0.disposition.hearing_impaired=0
459 streams.stream.0.disposition.visual_impaired=0
460 streams.stream.0.disposition.clean_effects=0
461 streams.stream.0.disposition.attached_pic=0
462 streams.stream.0.tags.E="mc²"
463 streams.stream.1.index=1
464 streams.stream.1.codec_name="rawvideo"
465 streams.stream.1.profile="unknown"
466 streams.stream.1.codec_type="video"
467 streams.stream.1.codec_time_base="1/51200"
468 streams.stream.1.codec_tag_string="RGB[24]"
469 streams.stream.1.codec_tag="0x18424752"
470 streams.stream.1.width=320
471 streams.stream.1.height=240
472 streams.stream.1.has_b_frames=0
473 streams.stream.1.sample_aspect_ratio="1:1"
474 streams.stream.1.display_aspect_ratio="4:3"
475 streams.stream.1.pix_fmt="rgb24"
476 streams.stream.1.level=-99
477 streams.stream.1.timecode="N/A"
478 streams.stream.1.id="N/A"
479 streams.stream.1.r_frame_rate="25/1"
480 streams.stream.1.avg_frame_rate="25/1"
481 streams.stream.1.time_base="1/51200"
482 streams.stream.1.start_pts=0
483 streams.stream.1.start_time="0.000000"
484 streams.stream.1.duration_ts="N/A"
485 streams.stream.1.duration="N/A"
486 streams.stream.1.bit_rate="N/A"
487 streams.stream.1.nb_frames="N/A"
488 streams.stream.1.nb_read_frames="4"
489 streams.stream.1.nb_read_packets="4"
490 streams.stream.1.disposition.default=0
491 streams.stream.1.disposition.dub=0
492 streams.stream.1.disposition.original=0
493 streams.stream.1.disposition.comment=0
494 streams.stream.1.disposition.lyrics=0
495 streams.stream.1.disposition.karaoke=0
496 streams.stream.1.disposition.forced=0
497 streams.stream.1.disposition.hearing_impaired=0
498 streams.stream.1.disposition.visual_impaired=0
499 streams.stream.1.disposition.clean_effects=0
500 streams.stream.1.disposition.attached_pic=0
501 streams.stream.1.tags.title="foobar"
502 streams.stream.1.tags.duration_ts="field-and-tags-conflict-attempt"
503 streams.stream.2.index=2
504 streams.stream.2.codec_name="rawvideo"
505 streams.stream.2.profile="unknown"
506 streams.stream.2.codec_type="video"
507 streams.stream.2.codec_time_base="1/51200"
508 streams.stream.2.codec_tag_string="RGB[24]"
509 streams.stream.2.codec_tag="0x18424752"
510 streams.stream.2.width=100
511 streams.stream.2.height=100
512 streams.stream.2.has_b_frames=0
513 streams.stream.2.sample_aspect_ratio="1:1"
514 streams.stream.2.display_aspect_ratio="1:1"
515 streams.stream.2.pix_fmt="rgb24"
516 streams.stream.2.level=-99
517 streams.stream.2.timecode="N/A"
518 streams.stream.2.id="N/A"
519 streams.stream.2.r_frame_rate="25/1"
520 streams.stream.2.avg_frame_rate="25/1"
521 streams.stream.2.time_base="1/51200"
522 streams.stream.2.start_pts=0
523 streams.stream.2.start_time="0.000000"
524 streams.stream.2.duration_ts="N/A"
525 streams.stream.2.duration="N/A"
526 streams.stream.2.bit_rate="N/A"
527 streams.stream.2.nb_frames="N/A"
528 streams.stream.2.nb_read_frames="4"
529 streams.stream.2.nb_read_packets="4"
530 streams.stream.2.disposition.default=0
531 streams.stream.2.disposition.dub=0
532 streams.stream.2.disposition.original=0
533 streams.stream.2.disposition.comment=0
534 streams.stream.2.disposition.lyrics=0
535 streams.stream.2.disposition.karaoke=0
536 streams.stream.2.disposition.forced=0
537 streams.stream.2.disposition.hearing_impaired=0
538 streams.stream.2.disposition.visual_impaired=0
539 streams.stream.2.disposition.clean_effects=0
540 streams.stream.2.disposition.attached_pic=0
541 format.filename="tests/data/ffprobe-test.nut"
542 format.nb_streams=3
543 format.nb_programs=0
544 format.format_name="nut"
545 format.start_time="0.000000"
546 format.duration="0.120000"
547 format.size="1054812"
548 format.bit_rate="70320800"
549 format.probe_score=100
550 format.tags.title="ffprobe test file"
551 format.tags.comment="'A comment with CSV, XML & JSON special chars': <tag value=\"x\">"
552 format.tags.comment2="I ♥ Üñîçød€"