ffprobe: print stream channel_layout when available
[ffmpeg.git] / tests / ref / fate / ffprobe_compact
index 249df57..eb82edb 100644 (file)
@@ -26,7 +26,7 @@ packet|codec_type=video|stream_index=1|pts=6144|pts_time=0.120000|dts=6144|dts_t
 frame|media_type=video|key_frame=1|pkt_pts=6144|pkt_pts_time=0.120000|pkt_dts=6144|pkt_dts_time=0.120000|pkt_duration=2048|pkt_duration_time=0.040000|pkt_pos=794307|pkt_size=N/A|width=320|height=240|pix_fmt=rgb24|sample_aspect_ratio=1:1|pict_type=I|coded_picture_number=0|display_picture_number=0|interlaced_frame=0|top_field_first=0|repeat_pict=0
 packet|codec_type=video|stream_index=2|pts=6144|pts_time=0.120000|dts=6144|dts_time=0.120000|duration=2048|duration_time=0.040000|convergence_duration=N/A|convergence_duration_time=N/A|size=30000|pos=1024731|flags=K
 frame|media_type=video|key_frame=1|pkt_pts=6144|pkt_pts_time=0.120000|pkt_dts=6144|pkt_dts_time=0.120000|pkt_duration=2048|pkt_duration_time=0.040000|pkt_pos=1024731|pkt_size=N/A|width=100|height=100|pix_fmt=rgb24|sample_aspect_ratio=1:1|pict_type=I|coded_picture_number=0|display_picture_number=0|interlaced_frame=0|top_field_first=0|repeat_pict=0
-stream|index=0|codec_name=pcm_s16le|profile=unknown|codec_type=audio|codec_time_base=1/44100|codec_tag_string=PSD[16]|codec_tag=0x10445350|sample_fmt=s16|sample_rate=44100|channels=1|bits_per_sample=16|id=N/A|r_frame_rate=0/0|avg_frame_rate=0/0|time_base=1/44100|start_pts=0|start_time=0.000000|duration_ts=N/A|duration=N/A|bit_rate=705600|nb_frames=N/A|nb_read_frames=6|nb_read_packets=6|disposition:default=0|disposition:dub=0|disposition:original=0|disposition:comment=0|disposition:lyrics=0|disposition:karaoke=0|disposition:forced=0|disposition:hearing_impaired=0|disposition:visual_impaired=0|disposition:clean_effects=0|disposition:attached_pic=0|tag:E=mc²
+stream|index=0|codec_name=pcm_s16le|profile=unknown|codec_type=audio|codec_time_base=1/44100|codec_tag_string=PSD[16]|codec_tag=0x10445350|sample_fmt=s16|sample_rate=44100|channels=1|channel_layout=unknown|bits_per_sample=16|id=N/A|r_frame_rate=0/0|avg_frame_rate=0/0|time_base=1/44100|start_pts=0|start_time=0.000000|duration_ts=N/A|duration=N/A|bit_rate=705600|nb_frames=N/A|nb_read_frames=6|nb_read_packets=6|disposition:default=0|disposition:dub=0|disposition:original=0|disposition:comment=0|disposition:lyrics=0|disposition:karaoke=0|disposition:forced=0|disposition:hearing_impaired=0|disposition:visual_impaired=0|disposition:clean_effects=0|disposition:attached_pic=0|tag:E=mc²
 stream|index=1|codec_name=rawvideo|profile=unknown|codec_type=video|codec_time_base=1/51200|codec_tag_string=RGB[24]|codec_tag=0x18424752|width=320|height=240|has_b_frames=0|sample_aspect_ratio=1:1|display_aspect_ratio=4:3|pix_fmt=rgb24|level=-99|timecode=N/A|id=N/A|r_frame_rate=25/1|avg_frame_rate=25/1|time_base=1/51200|start_pts=0|start_time=0.000000|duration_ts=N/A|duration=N/A|bit_rate=N/A|nb_frames=N/A|nb_read_frames=4|nb_read_packets=4|disposition:default=0|disposition:dub=0|disposition:original=0|disposition:comment=0|disposition:lyrics=0|disposition:karaoke=0|disposition:forced=0|disposition:hearing_impaired=0|disposition:visual_impaired=0|disposition:clean_effects=0|disposition:attached_pic=0|tag:title=foobar|tag:duration_ts=field-and-tags-conflict-attempt
 stream|index=2|codec_name=rawvideo|profile=unknown|codec_type=video|codec_time_base=1/51200|codec_tag_string=RGB[24]|codec_tag=0x18424752|width=100|height=100|has_b_frames=0|sample_aspect_ratio=1:1|display_aspect_ratio=1:1|pix_fmt=rgb24|level=-99|timecode=N/A|id=N/A|r_frame_rate=25/1|avg_frame_rate=25/1|time_base=1/51200|start_pts=0|start_time=0.000000|duration_ts=N/A|duration=N/A|bit_rate=N/A|nb_frames=N/A|nb_read_frames=4|nb_read_packets=4|disposition:default=0|disposition:dub=0|disposition:original=0|disposition:comment=0|disposition:lyrics=0|disposition:karaoke=0|disposition:forced=0|disposition:hearing_impaired=0|disposition:visual_impaired=0|disposition:clean_effects=0|disposition:attached_pic=0
 format|filename=tests/data/ffprobe-test.nut|nb_streams=3|nb_programs=0|format_name=nut|start_time=0.000000|duration=0.120000|size=1054812|bit_rate=70320800|probe_score=100|tag:title=ffprobe test file|tag:comment='A comment with CSV, XML & JSON special chars': <tag value="x">|tag:comment2=I ♥ Üñîçød€